Dunkirk 2017 Movies HD TS XviD Clean Audio AAC New Source with Sa...

  • Category Movies
  • Type Divx/Xvid
  • Language Russian
  • Total size 705.6 MB
  • Uploaded By nehalpuja
  • Downloads 27133
  • Last checked 11 hours ago
  • Date uploaded 2 months ago
  • Seeders 130
  • Leechers 34

Dunkirk

ActionDramaHistoryThrillerWar

Miraculous evacuation of Allied soldiers from Belgium, Britain, Canada, and France, who were cut off and surrounded by the German army from the beaches and harbor of Dunkirk, France, between May 26- June 04, 1940, during Battle of France in World War II.

Infohash : 2BD174B0615D537B59E00FB64C11ADDC565C1E29

Dunkirk 2017 Movies HD TS XviD Clean Audio AAC New Source with Sample ☻rDX☻
===============================================================================================

SCREEN SHOTS:



or

http://postimage.co.nr/2017/7/1/return/1.html

File size                                : 698 MiB
Duration                                 : 1 h 39 min
Overall bit rate mode                    : Constant
Overall bit rate                         : 976 kb/s
Movie name                               : Dunkirk 2017 Movies HD TS XviD Clean Audio AAC New Source ☻rDX☻

Video
ID                                       : 2
Format                                   : AVC
Format/Info                              : Advanced Video Codec
Format profile                           : [email protected]
Format settings, CABAC                   : Yes
Format settings, ReFrames                : 2 frames
Format settings, GOP                     : M=1, N=12
Codec ID                                 : V_MPEG4/ISO/AVC
Duration                                 : 1 h 39 min
Bit rate mode                            : Constant
Bit rate                                 : 785 kb/s
Width                                    : 720 pixels
Height                                   : 320 pixels
Display aspect ratio                     : 2.25:1
Frame rate mode                          : Constant
Frame rate                               : 29.970 (30000/1001) FPS
Color space                              : YUV
Chroma subsampling                       : 4:2:0
Bit depth                                : 8 bits
Scan type                                : Progressive
Bits/(Pixel*Frame)                       : 0.114
Stream size                              : 546 MiB (78%)
Title                                    : ☻rDX☻
Default                                  : Yes
Forced                                   : No

Audio
ID                                       : 1
Format                                   : AC-3
Format/Info                              : Audio Coding 3
Mode extension                           : CM (complete main)
Format settings, Endianness              : Big
Codec ID                                 : A_AC3
Duration                                 : 1 h 39 min
Bit rate mode                            : Constant
Bit rate                                 : 192 kb/s
Channel(s)                               : 2 channels
Channel positions                        : Front: L R
Sampling rate                            : 48.0 kHz
Frame rate                               : 31.250 FPS (1536 spf)
Bit depth                                : 16 bits
Compression mode                         : Lossy
Stream size                              : 137 MiB (20%)
Title                                    : ☻rDX☻
Default                                  : Yes
Forced                                   : No



IMDB                                     : http://www.imdb.com/title/tt5013056

Files:

Dunkirk 2017 Movies HD TS XviD Clean Audio AAC New Source with Sample ☻rDX☻
  • Sample ~ Dunkirk 2017 Movies HD TS XviD Clean Audio AAC New Source ☻rDX☻.mkv (8.0 MB)
  • Dunkirk 2017 Movies HD TS XviD Clean Audio AAC New Source ☻rDX☻.mkv (697.6 MB)

Comments

Code:

  • udp://tracker.coppersurfer.tk:6969/announce
  • udp://tracker.openbittorrent.com:80/announce
  • udp://glotorrents.pw:6969/announce
  • udp://tracker.publicbt.com:80/announce
  • http://retracker.krs-ix.ru/announce
  • udp://tracker.pomf.se:80/announce
  • udp://explodie.org:6969/announce
  • http://mgtracker.org:2710/announce
  • http://tracker.aletorrenty.pl:2710/announce
  • http://tracker.btcake.com/announce
  • udp://tracker.openbittorrent.com:80/announce
  • udp://tracker.leechers-paradise.org:6969/announce
  • udp://coppersurfer.tk:6969/announce