Lupin III - L'elusività della nebbia (2007).H264.Italian.jpn.Ac3...

  • Category Anime
  • Type Anime
  • Language Italian
  • Total size 1.3 GB
  • Uploaded By robbyrs
  • Downloads 36
  • Last checked 4 days ago
  • Date uploaded 1 week ago
  • Seeders 7
  • Leechers 7

Infohash : E612C5FCBC8C703D7039DB2DBF028D183E23A249

Lupin III - L'elusività  della nebbia (2007).H264.Italian.jpn.Ac3.5.1.sub.ita.iCV-MIRCrew




NO FOUND ONLY ORIGINAL RELEASE





My release is always in double track audio italian and Original audio
for select it use VLC or dvd player home
not use wmp

[color=yellow][size=18pt]Grazie a [email protected] per il bdrip[/size]

Lupin III - L'elusività  della nebbia (2007)

PRESENTI ANCHE i SOTTOTITOLI

ESTERNI (ita)







Autore Monkey Punch
Regia Toshihiko Masuda
Char. design Satoshi Hirayama
Musiche Yūji Ōno
Studio TMS Entertainment
Rete Nippon Television
1ª TV 27 luglio 2007
Aspect ratio 16:9
Durata 92 min
Rete it. Italia 1
1ª TV it. 8 settembre – 12 settembre 2008



*************************************



Mentre Lupin III è alla ricerca di indizi per trovare un antico tesoro, viene trovato da Zenigata che si mette ad inseguirlo. Nella fuga dalla polizia, Lupin, Jigen e Goemon si accorgono che sta succedendo qualcosa di strano, le persone attorno a loro iniziano a sparire misteriosamente...................



35 years after the encounter of Mamo Kyosuke. .











[spoiler]
General
Unique ID : 192153555212748867698611834993532064224 (0x908F6DB81AE3A1E7C5E6D03C0529D1E0)
Complete name : Lupin III - L'elusività  della nebbia (2007).H264.ita.ita.jpn.sub.ita.iCV-MIRCrew.mkv
Format : Matroska
Format version : Version 2
File size : 1.32 GiB
Duration : 1h 32mn
Overall bit rate : 2 050 Kbps
Movie name : VISIT www.icv-crew.org
Encoded date : UTC 2013-09-08 10:36:18
Writing application : Lavf54.63.100
Writing library : Lavf54.63.100
COPYRIGHT : robbyrs

Video
ID : 1
Format : AVC
Format/Info : Advanced Video Codec
Format profile : [email protected]
Format settings, CABAC : Yes
Format settings, ReFrames : 2 frames
Codec ID : V_MPEG4/ISO/AVC
Duration : 1h 32mn
Bit rate : 1 270 Kbps
Width : 688 pixels
Height : 512 pixels
Display aspect ratio : 4:3
Original display aspect ratio : 4:3
Frame rate mode : Variable
Frame rate : 25.000 fps
Color space : YUV
Chroma subsampling : 4:2:0
Bit depth : 8 bits
Scan type : Progressive
Bits/(Pixel*Frame) : 0.144
Stream size : 817 MiB (61%)
Writing library : x264 core 130 r2273
Encoding settings : cabac=1 / ref=2 / deblock=1:0:0 / analyse=0x1:0x131 / me=hex / subme=7 / psy=1 / psy_rd=1.00:0.00 / mixed_ref=0 / me_range=16 / chroma_me=1 / trellis=1 / 8x8dct=0 / cqm=0 / deadzone=21,11 / fast_pskip=1 / chroma_qp_offset=-2 / threads=12 / lookahead_threads=2 / sliced_threads=0 / nr=0 / decimate=1 / interlaced=0 / bluray_compat=0 / constrained_intra=0 / bframes=3 / b_pyramid=0 / b_adapt=1 / b_bias=0 / direct=3 / weightb=1 / open_gop=0 / weightp=2 / keyint=250 / keyint_min=25 / scenecut=40 / intra_refresh=0 / rc_lookahead=40 / rc=abr / mbtree=1 / bitrate=1270 / ratetol=1.0 / qcomp=0.60 / qpmin=10 / qpmax=69 / qpstep=4 / vbv_maxrate=24000 / vbv_bufsize=24000 / nal_hrd=none / ip_ratio=1.40 / aq=1:1.00
Language : Italian
Default : Yes
Forced : No

Audio #1
ID : 2
Format : AC-3
Format/Info : Audio Coding 3
Mode extension : CM (complete main)
Codec ID : A_AC3
Duration : 1h 32mn
Bit rate mode : Constant
Bit rate : 448 Kbps
Channel(s) : 6 channels
Channel positions : Front: L C R, Side: L R, LFE
Sampling rate : 48.0 KHz
Bit depth : 16 bits
Compression mode : Lossy
Stream size : 295 MiB (22%)
Title : Italiano AC3 5.1 448 kbps
Language : Italian
Default : Yes
Forced : No

Audio #2
ID : 3
Format : AC-3
Format/Info : Audio Coding 3
Mode extension : CM (complete main)
Codec ID : A_AC3
Duration : 1h 32mn
Bit rate mode : Constant
Bit rate : 192 Kbps
Channel(s) : 2 channels
Channel positions : Front: L R
Sampling rate : 48.0 KHz
Bit depth : 16 bits
Compression mode : Lossy
Stream size : 126 MiB (9%)
Title : Italiano AC3 2.0 192 kbps
Language : Italian
Default : No
Forced : No

Audio #3
ID : 4
Format : MPEG Audio
Format version : Version 1
Format profile : Layer 3
Codec ID : A_MPEG/L3
Codec ID/Hint : MP3
Duration : 1h 32mn
Bit rate mode : Constant
Bit rate : 128 Kbps
Channel(s) : 2 channels
Sampling rate : 44.1 KHz
Compression mode : Lossy
Delay relative to video : 1mn 5s
Stream size : 84.3 MiB (6%)
Title : Japanese AC3 2.0 192 kbps
Writing library : LAME
Language : Japanese
Default : No
Forced : No

Text
ID : 5
Format : UTF-8
Codec ID : S_TEXT/UTF8
Codec ID/Info : UTF-8 Plain Text
Title : Sottotitoli SRT - Italiano
Language : Italian
Default : No
Forced : No

Menu
00:00:00.000 : :Prologo
00:06:21.760 : :Misteriose sparizioni
00:10:51.920 : :Indietro nel tempo
00:19:55.600 : :La Regina di Shine
00:26:10.360 : :Il giovane Takaya
00:31:18.360 : :Fujiko e la Fiamma Blu
00:39:57.680 : :Evitare la guerra
00:50:55.880 : :Il bianco Tamayura
01:02:11.600 : :L'attacco del Nord
01:13:12.960 : :Finalmente il tesoro
01:21:06.040 : :Il miracolo del bianco



[/spoiler]

[/color]



Files:

Lupin III - L'elusività  della nebbia (2007)H264.ita.ita.jpn.sub.ita.iCV-MIRCrew
  • Lupin III - L'elusività  della nebbia (2007)H264.ita.ita.jpn.sub.ita.iCV-MIRCrew.ita.srt (75.5 KB)
  • Lupin III - L'elusività  della nebbia (2007)H264.ita.ita.jpn.sub.ita.iCV-MIRCrew.mkv (1.3 GB)
  • www.icv-crew.org.txt (0.1 KB)

There are currently no comments. Feel free to leave one :)

Code:

  • udp://tracker.coppersurfer.tk:6969/announce
  • udp://tracker.opentrackr.org:1337/announce
  • udp://tracker.leechers-paradise.org:6969/announce
  • udp://9.rarbg.com:2710/announce
  • udp://9.rarbg.to:2710/announce
  • udp://9.rarbg.me:2710/announce
  • udp://glotorrents.pw:6969/announce
  • udp://tracker.openbittorrent.com:80/announce
  • udp://tracker.pubt.net:2710/announce