DuckTales (2017) S01E01 Woo-oo! 720p x264 Phun Psyz

  • Category TV
  • Type HD
  • Language English
  • Total size 170.4 MB
  • Uploaded By PhunPsyz
  • Downloads 594
  • Last checked 3 hours ago
  • Date uploaded 2 months ago
  • Seeders 5
  • Leechers 0

Infohash : 7CEC2318E03D28B18D0514CC98B1569ADA1CD54A

x265 Size, x264 Compatibility, HD Quality

http://www.imdb.com/title/tt5531466/episodes?ref_=tt_ov_epl

No Description Available

Source: TBS (1.05 GB)










Format : MPEG-4
Format profile : Base Media / Version 2
Codec ID : mp42 (isom/iso2/avc1/mp41)
File size : 170 MiB
Duration : 43 min 59 s
Overall bit rate mode : Variable
Overall bit rate : 541 kb/s
Writing application : HandBrake 1.0.7 2017040900

Video
ID : 1
Format : AVC
Format/Info : Advanced Video Codec
Format profile : [email protected]
Format settings, CABAC : Yes
Format settings, ReFrames : 8 frames
Codec ID : avc1
Codec ID/Info : Advanced Video Coding
Duration : 43 min 59 s
Bit rate : 374 kb/s
Width : 1 280 pixels
Height : 720 pixels
Display aspect ratio : 16:9
Frame rate mode : Variable
Frame rate : 23.976 (24000/1001) FPS
Minimum frame rate : 23.974 FPS
Maximum frame rate : 23.981 FPS
Color space : YUV
Chroma subsampling : 4:2:0
Bit depth : 8 bits
Scan type : Progressive
Bits/(Pixel*Frame) : 0.017
Stream size : 118 MiB (69%)
Writing library : x264 core 148 r2708 86b7198
Color range : Limited
Color primaries : BT.709
Transfer characteristics : BT.709
Matrix coefficients : BT.709

Audio
ID : 2
Format : AAC
Format/Info : Advanced Audio Codec
Format profile : LC
Codec ID : 40
Duration : 43 min 59 s
Bit rate mode : Variable
Bit rate : 160 kb/s
Channel(s) : 2 channels
Channel positions : Front: L R
Sampling rate : 48.0 kHz
Frame rate : 46.875 FPS (1024 spf)
Compression mode : Lossy
Stream size : 50.5 MiB (30%)
Title : Stereo / Stereo
Default : Yes
Alternate group : 1

Files:

  • DuckTales (2017) S01E01 Woo-oo! 720p x264 Phun Psyz.mp4 (170.4 MB)

Comments

Code:

  • udp://tracker.coppersurfer.tk:6969/announce
  • udp://tracker.pirateparty.gr:6969/announce
  • udp://shadowshq.yi.org:6969/announce
  • udp://tracker.tiny-vps.com:6969/announce
  • udp://inferno.demonoid.pw:3397/announce
  • udp://tracker.opentrackr.org:1337/announce
  • http://mgtracker.org:6969/announce
  • udp://tracker.leechers-paradise.org:6969/announce
  • udp://eddie4.nl:6969/announce
  • udp://tracker.piratepublic.com:1337/announce
  • udp://tracker.grepler.com:6969/announce
  • http://explodie.org:6969/announce