[REUP] Iron Man 2008 (1080p Bluray x265 HEVC 10bit AAC 5.1 Tigole...

  • Category Movies
  • Type HEVC/x265
  • Language English
  • Total size 4.2 GB
  • Uploaded By UTRplus
  • Downloads 558
  • Last checked 4 hours ago
  • Date uploaded 2 months ago
  • Seeders 15
  • Leechers 5

Infohash : 590C4A71457EB7231E56A4AA5A1D61EFBFC5E169



Iron Man 2008 in 1080p, encoded with x265 in HEVC and AAC 5.1 English, with English and German subtitles!
Encoded using the time consuming 2 pass, 10 bit color at 2500 kbps, from a Blu-ray source, for the highest quality possible.



Media Information

Code:

General
Unique ID : 183967153269461898925398710617911877961 (0x8A66C8F0F1FE38B382BDC88D83646149)
Complete name : Iron Man 2008 (1080p x265 10bit Tigole).mkv
Format : Matroska
Format version : Version 4 / Version 2
File size : 2.54 GiB
Duration : 2h 6mn
Overall bit rate : 2 885 Kbps
Encoded date : UTC 2016-06-20 19:17:56
Writing application : mkvmerge v9.2.0 ('Photograph') 64bit
Writing library : libebml v1.3.3 + libmatroska v1.4.4

Video
ID : 1
Format : HEVC
Format/Info : High Efficiency Video Coding
Format profile : Main [email protected]@Main
Codec ID : V_MPEGH/ISO/HEVC
Duration : 2h 6mn
Bit rate : 2 480 Kbps
Width : 1 920 pixels
Height : 800 pixels
Display aspect ratio : 2.40:1
Frame rate mode : Constant
Frame rate : 23.976 (24000/1001) fps
Color space : YUV
Chroma subsampling : 4:2:0
Bit depth : 10 bits
Bits/(Pixel*Frame) : 0.067
Stream size : 2.18 GiB (86%)
Writing library : x265 1.9+200-6098ba3e0cf16b11:[Windows][GCC 5.3.0][64 bit] 10bit
Encoding settings : wpp / ctu=64 / min-cu-size=8 / max-tu-size=32 / tu-intra-depth=1 / tu-inter-depth=1 / me=1 / subme=2 / merange=57 / no-rect / no-amp / max-merge=2 / temporal-mvp / no-early-skip / recursion-skip / rdpenalty=0 / no-tskip / no-tskip-fast / strong-intra-smoothing / no-lossless / no-cu-lossless / no-constrained-intra / no-fast-intra / open-gop / no-temporal-layers / interlace=0 / keyint=250 / min-keyint=23 / scenecut=40 / rc-lookahead=20 / lookahead-slices=5 / bframes=4 / bframe-bias=0 / b-adapt=2 / ref=3 / limit-refs=3 / no-limit-modes / weightp / no-weightb / aq-mode=1 / qg-size=32 / aq-strength=1.00 / cbqpoffs=0 / crqpoffs=0 / rd=3 / psy-rd=2.00 / rdoq-level=0 / psy-rdoq=0.00 / no-rd-refine / signhide / deblock=0:0 / sao / no-sao-non-deblock / b-pyramid / cutree / no-intra-refresh / rc=2 / pass / bitrate=2480 / qcomp=0.60 / qpmin=0 / qpmax=51 / qpstep=4 / cplxblur=20.0 / qblur=0.5 / ipratio=1.40 / pbratio=1.30
Default : Yes
Forced : No

Audio
ID : 2
Format : AAC
Format/Info : Advanced Audio Codec
Format profile : LC
Codec ID : A_AAC
Duration : 2h 6mn
Bit rate : 339 Kbps
Channel(s) : 6 channels
Channel positions : Front: L C R, Side: L R, LFE
Sampling rate : 48.0 KHz
Frame rate : 46.875 fps (1024 spf)
Compression mode : Lossy
Delay relative to video : 20ms
Stream size : 305 MiB (12%)
Language : English
Default : No
Forced : No

Text #1
ID : 3
Format : VobSub
Muxing mode : zlib
Codec ID : S_VOBSUB
Codec ID/Info : Picture based subtitle format used on DVDs
Duration : 2h 4mn
Bit rate : 6 168 bps
Count of elements : 1339
Stream size : 5.48 MiB (0%)
Language : English
Default : No
Forced : No

Text #2
ID : 4
Format : VobSub
Muxing mode : zlib
Codec ID : S_VOBSUB
Codec ID/Info : Picture based subtitle format used on DVDs
Duration : 1h 3mn
Bit rate : 125 bps
Count of elements : 37
Stream size : 58.3 KiB (0%)
Language : English
Default : No
Forced : No

Text #3
ID : 5
Format : VobSub
Muxing mode : zlib
Codec ID : S_VOBSUB
Codec ID/Info : Picture based subtitle format used on DVDs
Duration : 1h 3mn
Bit rate : 130 bps
Count of elements : 37
Stream size : 60.7 KiB (0%)
Language : English
Default : No
Forced : Yes

Text #4
ID : 6
Format : VobSub
Muxing mode : zlib
Codec ID : S_VOBSUB
Codec ID/Info : Picture based subtitle format used on DVDs
Duration : 2h 4mn
Bit rate : 58.3 Kbps
Count of elements : 9907
Stream size : 51.9 MiB (2%)
Language : German
Default : No
Forced : No

Menu
00:00:00.000 : en:Chapter 01
00:09:06.170 : en:Chapter 02
00:18:00.579 : en:Chapter 03
00:26:49.941 : en:Chapter 04
00:35:01.849 : en:Chapter 05
00:43:15.259 : en:Chapter 06
00:52:38.488 : en:Chapter 07
00:59:24.644 : en:Chapter 08
01:07:32.423 : en:Chapter 09
01:11:44.300 : en:Chapter 10
01:18:31.206 : en:Chapter 11
01:24:40.575 : en:Chapter 12
01:35:00.111 : en:Chapter 13
01:44:29.346 : en:Chapter 14
01:53:31.471 : en:Chapter 15


Source Information

Code:


Files:

Iron Man 2008 (1080p Bluray x265 HEVC 10bit AAC 5.1 Tigole) Featurettes
  • Deleted and Extended Scenes 1.mkv (18.0 MB)
  • Deleted and Extended Scenes 2.mkv (8.2 MB)
  • Deleted and Extended Scenes 3.mkv (24.0 MB)
  • Deleted and Extended Scenes 4.mkv (50.9 MB)
  • Deleted and Extended Scenes 5.mkv (19.0 MB)
  • Deleted and Extended Scenes 6.mkv (38.2 MB)
  • Deleted and Extended Scenes 7.mkv (36.6 MB)
  • I Am Iron Man - Beneath the Armor.mkv (187.3 MB)
  • I Am Iron Man - Fine tuning and Premiere.mkv (97.6 MB)
  • I Am Iron Man - Grounded in Reality.mkv (172.1 MB)
  • I Am Iron Man - The Journey Begins.mkv (244.8 MB)
  • I Am Iron Man - The Suit that Makes Iron Man.mkv (121.8 MB)
  • I Am Iron Man - The Walk of Destruction.mkv (262.6 MB)
  • Robert Downey Jr. Screen Test.mkv (26.7 MB)
  • Stan Lee Easter Egg.mkv (22.7 MB)
  • The Actor's Process.mkv (49.1 MB)
  • Theatrical Trailer 1.mkv (24.8 MB)
  • Theatrical Trailer 2.mkv (28.4 MB)
  • Wired - The Visual Effects of Iron Man.mkv (303.1 MB)
  • Iron Man 2008 (1080p x265 10bit Tigole).mkv (2.5 GB)

Comments

Code:

  • udp://torrent.gresille.org:80/announce
  • udp://tracker.opentrackr.org:1337/announce
  • udp://tracker.coppersurfer.tk:6969/announce