[REUP] Iron Man 3 2013 (1080p Bluray x265 HEVC 10bit AAC 7.1 Tigo...

  • Category Movies
  • Type HEVC/x265
  • Language English
  • Total size 3.3 GB
  • Uploaded By UTRplus
  • Downloads 528
  • Last checked 3 hours ago
  • Date uploaded 2 months ago
  • Seeders 3
  • Leechers 3

Infohash : F0D8D75927CB60D070437A1DBA5982CB8EDD0282



Iron Man 3 2013 in 1080p, encoded with x265 in HEVC and AAC 7.1 English, with subtitles!
Encoded using the time consuming 2 pass, 10 bit color at 2500 kbps, from a Blu-ray source, for the highest quality possible.



Media Information

Code:

General
Unique ID : 242973176629207119938784728099094943331 (0xB6CAEE80F6568891B14ADC436F9A5663)
Complete name : Iron Man 3 2013 (1080p x265 10bit Tigole).mkv
Format : Matroska
Format version : Version 4 / Version 2
File size : 2.73 GiB
Duration : 2h 10mn
Overall bit rate : 2 989 Kbps
Encoded date : UTC 2016-06-22 19:05:48
Writing application : mkvmerge v9.2.0 ('Photograph') 64bit
Writing library : libebml v1.3.3 + libmatroska v1.4.4

Video
ID : 1
Format : HEVC
Format/Info : High Efficiency Video Coding
Format profile : Main [email protected]@Main
Codec ID : V_MPEGH/ISO/HEVC
Duration : 2h 10mn
Bit rate : 2 516 Kbps
Width : 1 920 pixels
Height : 800 pixels
Display aspect ratio : 2.40:1
Frame rate mode : Constant
Frame rate : 23.976 (24000/1001) fps
Color space : YUV
Chroma subsampling : 4:2:0
Bit depth : 10 bits
Bits/(Pixel*Frame) : 0.068
Stream size : 2.29 GiB (84%)
Writing library : x265 1.9+200-6098ba3e0cf16b11:[Windows][GCC 5.3.0][64 bit] 10bit
Encoding settings : wpp / ctu=64 / min-cu-size=8 / max-tu-size=32 / tu-intra-depth=1 / tu-inter-depth=1 / me=1 / subme=2 / merange=57 / no-rect / no-amp / max-merge=2 / temporal-mvp / no-early-skip / recursion-skip / rdpenalty=0 / no-tskip / no-tskip-fast / strong-intra-smoothing / no-lossless / no-cu-lossless / no-constrained-intra / no-fast-intra / open-gop / no-temporal-layers / interlace=0 / keyint=250 / min-keyint=23 / scenecut=40 / rc-lookahead=20 / lookahead-slices=5 / bframes=4 / bframe-bias=0 / b-adapt=2 / ref=3 / limit-refs=3 / no-limit-modes / weightp / no-weightb / aq-mode=1 / qg-size=32 / aq-strength=1.00 / cbqpoffs=0 / crqpoffs=0 / rd=3 / psy-rd=2.00 / rdoq-level=0 / psy-rdoq=0.00 / no-rd-refine / signhide / deblock=0:0 / sao / no-sao-non-deblock / b-pyramid / cutree / no-intra-refresh / rc=2 / pass / bitrate=2515 / qcomp=0.60 / qpmin=0 / qpmax=51 / qpstep=4 / cplxblur=20.0 / qblur=0.5 / ipratio=1.40 / pbratio=1.30
Default : Yes
Forced : No

Audio
ID : 2
Format : AAC
Format/Info : Advanced Audio Codec
Format profile : LC
Codec ID : A_AAC
Duration : 2h 10mn
Bit rate : 399 Kbps
Channel(s) : 8 channels
Channel positions : Front: L C R, Side: L R, Back: L R, LFE
Sampling rate : 48.0 KHz
Frame rate : 46.875 fps (1024 spf)
Compression mode : Lossy
Delay relative to video : 20ms
Stream size : 373 MiB (13%)
Language : English
Default : No
Forced : No

Text #1
ID : 3
Format : VobSub
Muxing mode : zlib
Codec ID : S_VOBSUB
Codec ID/Info : Picture based subtitle format used on DVDs
Duration : 2h 10mn
Bit rate : 7 948 bps
Count of elements : 2171
Stream size : 7.39 MiB (0%)
Language : English
Default : No
Forced : No

Text #2
ID : 4
Format : VobSub
Muxing mode : zlib
Codec ID : S_VOBSUB
Codec ID/Info : Picture based subtitle format used on DVDs
Duration : 2h 10mn
Bit rate : 6 476 bps
Count of elements : 1740
Stream size : 6.02 MiB (0%)
Language : English
Default : No
Forced : No

Text #3
ID : 5
Format : VobSub
Muxing mode : zlib
Codec ID : S_VOBSUB
Codec ID/Info : Picture based subtitle format used on DVDs
Duration : 2h 10mn
Bit rate : 5 101 bps
Count of elements : 1707
Stream size : 4.75 MiB (0%)
Language : French
Default : No
Forced : No

Text #4
ID : 6
Format : VobSub
Muxing mode : zlib
Codec ID : S_VOBSUB
Codec ID/Info : Picture based subtitle format used on DVDs
Duration : 2h 10mn
Bit rate : 4 972 bps
Count of elements : 1121
Stream size : 4.63 MiB (0%)
Language : Dutch
Default : No
Forced : No

Text #5
ID : 7
Format : VobSub
Muxing mode : zlib
Codec ID : S_VOBSUB
Codec ID/Info : Picture based subtitle format used on DVDs
Duration : 2h 10mn
Bit rate : 6 375 bps
Count of elements : 1718
Stream size : 5.94 MiB (0%)
Language : Greek
Default : No
Forced : No

Text #6
ID : 8
Format : VobSub
Muxing mode : zlib
Codec ID : S_VOBSUB
Codec ID/Info : Picture based subtitle format used on DVDs
Duration : 2h 10mn
Bit rate : 4 117 bps
Count of elements : 1738
Stream size : 3.84 MiB (0%)
Language : Arabic
Default : No
Forced : No

Text #7
ID : 9
Format : VobSub
Muxing mode : zlib
Codec ID : S_VOBSUB
Codec ID/Info : Picture based subtitle format used on DVDs
Duration : 2h 10mn
Bit rate : 6 063 bps
Count of elements : 1729
Stream size : 5.65 MiB (0%)
Language : Russian
Default : No
Forced : No

Text #8
ID : 10
Format : VobSub
Muxing mode : zlib
Codec ID : S_VOBSUB
Codec ID/Info : Picture based subtitle format used on DVDs
Duration : 2h 10mn
Bit rate : 6 369 bps
Count of elements : 1780
Stream size : 5.94 MiB (0%)
Language : Ukrainian
Default : No
Forced : No

Text #9
ID : 11
Format : VobSub
Muxing mode : zlib
Codec ID : S_VOBSUB
Codec ID/Info : Picture based subtitle format used on DVDs
Duration : 2h 10mn
Bit rate : 6 088 bps
Count of elements : 1726
Stream size : 5.67 MiB (0%)
Language : Bulgarian
Default : No
Forced : No

Text #10
ID : 12
Format : VobSub
Muxing mode : zlib
Codec ID : S_VOBSUB
Codec ID/Info : Picture based subtitle format used on DVDs
Duration : 2h 10mn
Bit rate : 6 062 bps
Count of elements : 1774
Stream size : 5.65 MiB (0%)
Language : Latvian
Default : No
Forced : No

Text #11
ID : 13
Format : VobSub
Muxing mode : zlib
Codec ID : S_VOBSUB
Codec ID/Info : Picture based subtitle format used on DVDs
Duration : 2h 10mn
Bit rate : 6 106 bps
Count of elements : 1740
Stream size : 5.69 MiB (0%)
Language : Lithuanian
Default : No
Forced : No

Text #12
ID : 14
Format : VobSub
Muxing mode : zlib
Codec ID : S_VOBSUB
Codec ID/Info : Picture based subtitle format used on DVDs
Duration : 2h 10mn
Bit rate : 6 027 bps
Count of elements : 1757
Stream size : 5.62 MiB (0%)
Language : Estonian
Default : No
Forced : No

Menu
00:00:00.000 : en:00:00:00.000
00:04:52.751 : en:00:04:52.751
00:07:55.433 : en:00:07:55.433
00:12:12.440 : en:00:12:12.440
00:19:04.101 : en:00:19:04.101
00:23:47.885 : en:00:23:47.885
00:29:47.703 : en:00:29:47.703
00:39:46.384 : en:00:39:46.384
00:45:56.045 : en:00:45:56.045
00:59:19.639 : en:00:59:19.639
01:01:56.922 : en:01:01:56.922
01:09:24.452 : en:01:09:24.452
01:18:41.508 : en:01:18:41.508
01:23:52.945 : en:01:23:52.945
01:37:55.995 : en:01:37:55.995
01:56:18.305 : en:01:56:18.305
01:59:38.755 : en:01:59:38.755


Source Information

Code:


Files:

Iron Man 3 2013 (1080p Bluray x265 HEVC 10bit AAC 7.1 Tigole) Featurettes
  • Deconstructing the Scene - Attack on Air Force One.mkv (98.1 MB)
  • Deleted and Extended Scenes.mkv (145.2 MB)
  • Gag Reel.mkv (47.2 MB)
  • Iron Man 3 Unmasked.mkv (124.5 MB)
  • Marvel One-Shot - Agent Carter.mkv (101.6 MB)
  • Trailer 1.mkv (27.0 MB)
  • Trailer 2.mkv (17.1 MB)
  • Trailer 3.mkv (22.1 MB)
  • Trailer 4.mkv (17.0 MB)
  • Iron Man 3 2013 (1080p x265 10bit Tigole).mkv (2.7 GB)

There are currently no comments. Feel free to leave one :)

Code:

  • udp://torrent.gresille.org:80/announce
  • udp://tracker.opentrackr.org:1337/announce
  • udp://tracker.coppersurfer.tk:6969/announce