[REUP] Captain America - The First Avenger 2011 (1080p Bluray x26...

  • Category Movies
  • Type HEVC/x265
  • Language English
  • Total size 3.3 GB
  • Uploaded By UTRplus
  • Downloads 298
  • Last checked 1 week ago
  • Date uploaded 1 week ago
  • Seeders 17
  • Leechers 9

Infohash : F0DE2B4E5E8A36611293B2931A7D68F23540B607



Captain America: The First Avenger 2011 in 1080p, encoded with x265 in HEVC and AAC 5.1 English, with subtitles!
Encoded using the time consuming 2 pass, 10 bit color at 2500 kbps, from a Blu-ray source, for the highest quality possible.



Media Information

Code:

General
Unique ID : 179071520135778071715020287215798799454 (0x86B7EB9793EABC20B047B2D467D74C5E)
Complete name : Captain America - The First Avenger 2011 (1080p x265 10bit Tigole).mkv
Format : Matroska
Format version : Version 4 / Version 2
File size : 2.52 GiB
Duration : 2h 4mn
Overall bit rate : 2 908 Kbps
Movie name : Captain America The First Avenger
Encoded date : UTC 2016-06-25 05:17:26
Writing application : mkvmerge v9.2.0 ('Photograph') 64bit
Writing library : libebml v1.3.3 + libmatroska v1.4.4

Video
ID : 1
Format : HEVC
Format/Info : High Efficiency Video Coding
Format profile : Main [email protected]@Main
Codec ID : V_MPEGH/ISO/HEVC
Duration : 2h 4mn
Bit rate : 2 483 Kbps
Width : 1 920 pixels
Height : 816 pixels
Display aspect ratio : 2.35:1
Frame rate mode : Constant
Frame rate : 23.976 (24000/1001) fps
Color space : YUV
Chroma subsampling : 4:2:0
Bit depth : 10 bits
Bits/(Pixel*Frame) : 0.066
Stream size : 2.15 GiB (85%)
Writing library : x265 1.9+200-6098ba3e0cf16b11:[Windows][GCC 5.3.0][64 bit] 10bit
Encoding settings : wpp / ctu=64 / min-cu-size=8 / max-tu-size=32 / tu-intra-depth=1 / tu-inter-depth=1 / me=1 / subme=2 / merange=57 / no-rect / no-amp / max-merge=2 / temporal-mvp / no-early-skip / recursion-skip / rdpenalty=0 / no-tskip / no-tskip-fast / strong-intra-smoothing / no-lossless / no-cu-lossless / no-constrained-intra / no-fast-intra / open-gop / no-temporal-layers / interlace=0 / keyint=250 / min-keyint=23 / scenecut=40 / rc-lookahead=20 / lookahead-slices=5 / bframes=4 / bframe-bias=0 / b-adapt=2 / ref=3 / limit-refs=3 / no-limit-modes / weightp / no-weightb / aq-mode=1 / qg-size=32 / aq-strength=1.00 / cbqpoffs=0 / crqpoffs=0 / rd=3 / psy-rd=2.00 / rdoq-level=0 / psy-rdoq=0.00 / no-rd-refine / signhide / deblock=0:0 / sao / no-sao-non-deblock / b-pyramid / cutree / no-intra-refresh / rc=2 / pass / bitrate=2483 / qcomp=0.60 / qpmin=0 / qpmax=51 / qpstep=4 / cplxblur=20.0 / qblur=0.5 / ipratio=1.40 / pbratio=1.30
Default : Yes
Forced : No

Audio
ID : 2
Format : AAC
Format/Info : Advanced Audio Codec
Format profile : LC
Codec ID : A_AAC
Duration : 2h 4mn
Bit rate : 336 Kbps
Channel(s) : 6 channels
Channel positions : Front: L C R, Side: L R, LFE
Sampling rate : 48.0 KHz
Frame rate : 46.875 fps (1024 spf)
Compression mode : Lossy
Delay relative to video : 20ms
Stream size : 298 MiB (12%)
Language : English
Default : No
Forced : No

Text #1
ID : 3
Format : VobSub
Muxing mode : zlib
Codec ID : S_VOBSUB
Codec ID/Info : Picture based subtitle format used on DVDs
Duration : 2h 2mn
Bit rate : 4 410 bps
Count of elements : 1019
Stream size : 3.88 MiB (0%)
Language : Danish
Default : No
Forced : No

Text #2
ID : 4
Format : VobSub
Muxing mode : zlib
Codec ID : S_VOBSUB
Codec ID/Info : Picture based subtitle format used on DVDs
Duration : 2h 2mn
Bit rate : 5 122 bps
Count of elements : 1229
Stream size : 4.50 MiB (0%)
Language : German
Default : No
Forced : No

Text #3
ID : 5
Format : VobSub
Muxing mode : zlib
Codec ID : S_VOBSUB
Codec ID/Info : Picture based subtitle format used on DVDs
Duration : 2h 0mn
Bit rate : 66 bps
Count of elements : 19
Stream size : 58.3 KiB (0%)
Language : German
Default : No
Forced : No

Text #4
ID : 6
Format : VobSub
Muxing mode : zlib
Codec ID : S_VOBSUB
Codec ID/Info : Picture based subtitle format used on DVDs
Duration : 2h 2mn
Bit rate : 4 688 bps
Count of elements : 1204
Stream size : 4.11 MiB (0%)
Language : English
Default : No
Forced : No

Text #5
ID : 7
Format : VobSub
Muxing mode : zlib
Codec ID : S_VOBSUB
Codec ID/Info : Picture based subtitle format used on DVDs
Duration : 8s 794ms
Bit rate : 8 318 bps
Count of elements : 5
Stream size : 8.93 KiB (0%)
Language : English
Default : No
Forced : Yes

Text #6
ID : 8
Format : VobSub
Muxing mode : zlib
Codec ID : S_VOBSUB
Codec ID/Info : Picture based subtitle format used on DVDs
Duration : 8s 789ms
Bit rate : 8 283 bps
Count of elements : 5
Stream size : 8.89 KiB (0%)
Language : English
Default : No
Forced : No

Text #7
ID : 9
Format : VobSub
Muxing mode : zlib
Codec ID : S_VOBSUB
Codec ID/Info : Picture based subtitle format used on DVDs
Duration : 2h 2mn
Bit rate : 4 713 bps
Count of elements : 1229
Stream size : 4.14 MiB (0%)
Language : Spanish
Default : No
Forced : No

Text #8
ID : 10
Format : VobSub
Muxing mode : zlib
Codec ID : S_VOBSUB
Codec ID/Info : Picture based subtitle format used on DVDs
Duration : 2h 0mn
Bit rate : 85 bps
Count of elements : 22
Stream size : 75.3 KiB (0%)
Language : Spanish
Default : No
Forced : No

Text #9
ID : 11
Format : VobSub
Muxing mode : zlib
Codec ID : S_VOBSUB
Codec ID/Info : Picture based subtitle format used on DVDs
Duration : 2h 2mn
Bit rate : 4 103 bps
Count of elements : 1230
Stream size : 3.61 MiB (0%)
Language : French
Default : No
Forced : No

Text #10
ID : 12
Format : VobSub
Muxing mode : zlib
Codec ID : S_VOBSUB
Codec ID/Info : Picture based subtitle format used on DVDs
Duration : 2h 0mn
Bit rate : 62 bps
Count of elements : 20
Stream size : 55.3 KiB (0%)
Language : French
Default : No
Forced : No

Text #11
ID : 13
Format : VobSub
Muxing mode : zlib
Codec ID : S_VOBSUB
Codec ID/Info : Picture based subtitle format used on DVDs
Duration : 2h 2mn
Bit rate : 4 369 bps
Count of elements : 1088
Stream size : 3.84 MiB (0%)
Language : Italian
Default : No
Forced : No

Text #12
ID : 14
Format : VobSub
Muxing mode : zlib
Codec ID : S_VOBSUB
Codec ID/Info : Picture based subtitle format used on DVDs
Duration : 2h 0mn
Bit rate : 81 bps
Count of elements : 20
Stream size : 72.2 KiB (0%)
Language : Italian
Default : No
Forced : No

Text #13
ID : 15
Format : VobSub
Muxing mode : zlib
Codec ID : S_VOBSUB
Codec ID/Info : Picture based subtitle format used on DVDs
Duration : 2h 2mn
Bit rate : 3 705 bps
Count of elements : 999
Stream size : 3.26 MiB (0%)
Language : Dutch
Default : No
Forced : No

Text #14
ID : 16
Format : VobSub
Muxing mode : zlib
Codec ID : S_VOBSUB
Codec ID/Info : Picture based subtitle format used on DVDs
Duration : 2h 2mn
Bit rate : 4 006 bps
Count of elements : 1157
Stream size : 3.52 MiB (0%)
Language : Norwegian Bokmal
Default : No
Forced : No

Text #15
ID : 17
Format : VobSub
Muxing mode : zlib
Codec ID : S_VOBSUB
Codec ID/Info : Picture based subtitle format used on DVDs
Duration : 2h 2mn
Bit rate : 4 435 bps
Count of elements : 1229
Stream size : 3.90 MiB (0%)
Language : Finnish
Default : No
Forced : No

Text #16
ID : 18
Format : VobSub
Muxing mode : zlib
Codec ID : S_VOBSUB
Codec ID/Info : Picture based subtitle format used on DVDs
Duration : 2h 2mn
Bit rate : 4 203 bps
Count of elements : 1157
Stream size : 3.70 MiB (0%)
Language : Swedish
Default : No
Forced : No

Text #17
ID : 19
Format : VobSub
Muxing mode : zlib
Codec ID : S_VOBSUB
Codec ID/Info : Picture based subtitle format used on DVDs
Duration : 2h 2mn
Bit rate : 5 260 bps
Count of elements : 1366
Stream size : 4.62 MiB (0%)
Language : English
Default : No
Forced : No

Text #18
ID : 20
Format : VobSub
Muxing mode : zlib
Codec ID : S_VOBSUB
Codec ID/Info : Picture based subtitle format used on DVDs
Duration : 2h 4mn
Bit rate : 7 576 bps
Count of elements : 1528
Stream size : 6.72 MiB (0%)
Language : German
Default : No
Forced : No

Text #19
ID : 21
Format : VobSub
Muxing mode : zlib
Codec ID : S_VOBSUB
Codec ID/Info : Picture based subtitle format used on DVDs
Duration : 1h 56mn
Bit rate : 8 578 bps
Count of elements : 1527
Stream size : 7.13 MiB (0%)
Language : English
Default : No
Forced : No

Text #20
ID : 22
Format : VobSub
Muxing mode : zlib
Codec ID : S_VOBSUB
Codec ID/Info : Picture based subtitle format used on DVDs
Duration : 2h 4mn
Bit rate : 7 347 bps
Count of elements : 1528
Stream size : 6.52 MiB (0%)
Language : Spanish
Default : No
Forced : No

Text #21
ID : 23
Format : VobSub
Muxing mode : zlib
Codec ID : S_VOBSUB
Codec ID/Info : Picture based subtitle format used on DVDs
Duration : 2h 4mn
Bit rate : 7 221 bps
Count of elements : 1528
Stream size : 6.41 MiB (0%)
Language : French
Default : No
Forced : No

Text #22
ID : 24
Format : VobSub
Muxing mode : zlib
Codec ID : S_VOBSUB
Codec ID/Info : Picture based subtitle format used on DVDs
Duration : 2h 4mn
Bit rate : 7 043 bps
Count of elements : 1528
Stream size : 6.25 MiB (0%)
Language : Italian
Default : No
Forced : No

Menu
00:00:00.000 : en:Chapter 01
00:08:12.158 : en:Chapter 02
00:14:56.812 : en:Chapter 03
00:24:21.543 : en:Chapter 04
00:30:39.128 : en:Chapter 05
00:38:39.859 : en:Chapter 06
00:45:52.166 : en:Chapter 07
00:51:58.156 : en:Chapter 08
00:57:55.638 : en:Chapter 09
01:03:59.293 : en:Chapter 10
01:12:22.588 : en:Chapter 11
01:19:10.662 : en:Chapter 12
01:28:27.051 : en:Chapter 13
01:33:53.002 : en:Chapter 14
01:42:20.342 : en:Chapter 15
01:50:45.055 : en:Chapter 16
01:53:46.319 : en:Chapter 17


Source Information

Code:


Files:

Captain America - The First Avenger 2011 (1080p Bluray x265 HEVC 10bit AAC 5.1 Tigole)
  • Captain America - The First Avenger 2011 (1080p x265 10bit Tigole).mkv (2.5 GB)
  • Featurettes
    • Behind the Skull.mkv (127.4 MB)
    • Captain America's Origin.mkv (47.7 MB)
    • Deleted Scenes.mkv (66.9 MB)
    • Heightened Technology.mkv (69.4 MB)
    • Howling Commandos.mkv (74.4 MB)
    • Marvel One-Shot - A Funny Thing Happened on the Way to Thor's Hammer.mkv (46.3 MB)
    • Outfitting a Hero.mkv (133.8 MB)
    • The Assembly Begins.mkv (20.5 MB)
    • The Transformation.mkv (108.9 MB)
    • Theatrical Trailer 1.mkv (28.1 MB)
    • Theatrical Trailer 2.mkv (28.1 MB)

There are currently no comments. Feel free to leave one :)

Code:

  • udp://torrent.gresille.org:80/announce
  • udp://tracker.opentrackr.org:1337/announce
  • udp://tracker.coppersurfer.tk:6969/announce