[REUP] Avengers - Age of Ultron 2015 (1080p Bluray x265 HEVC 10bi...

  • Category Movies
  • Type HEVC/x265
  • Language English
  • Total size 3.3 GB
  • Uploaded By UTRplus
  • Downloads 409
  • Last checked 1 week ago
  • Date uploaded 1 week ago
  • Seeders 25
  • Leechers 12

Infohash : 6781075D1B428C0ABEE6961BB30AA609F6A2CAD4



Avengers: Age of Ultron 2015 in 1080p, encoded with x265 in HEVC and AAC 5.1 English, with subtitles!
Encoded using the time consuming 2 pass, 10 bit color at 2500 kbps, from a Blu-ray source, for the highest quality possible.



Media Information

Code:

General
Unique ID : 247445980641811781200710102814072194299 (0xBA285CC484B67F4E9895769F2A0744FB)
Complete name : Avengers - Age of Ultron 2015 (1080p x265 10bit Tigole).mkv
Format : Matroska
Format version : Version 4 / Version 2
File size : 2.83 GiB
Duration : 2h 21mn
Overall bit rate : 2 867 Kbps
Movie name : MARVEL'S AVENGERS: AGE OF ULTRON - BLU-RAY
Encoded date : UTC 2016-06-27 06:37:12
Writing application : mkvmerge v9.2.0 ('Photograph') 64bit
Writing library : libebml v1.3.3 + libmatroska v1.4.4

Video
ID : 1
Format : HEVC
Format/Info : High Efficiency Video Coding
Format profile : Main [email protected]@Main
Codec ID : V_MPEGH/ISO/HEVC
Duration : 2h 21mn
Bit rate : 2 489 Kbps
Width : 1 920 pixels
Height : 800 pixels
Display aspect ratio : 2.40:1
Frame rate mode : Constant
Frame rate : 23.976 (24000/1001) fps
Color space : YUV
Chroma subsampling : 4:2:0
Bit depth : 10 bits
Bits/(Pixel*Frame) : 0.068
Stream size : 2.46 GiB (87%)
Writing library : x265 1.9+200-6098ba3e0cf16b11:[Windows][GCC 5.3.0][64 bit] 10bit
Encoding settings : wpp / ctu=64 / min-cu-size=8 / max-tu-size=32 / tu-intra-depth=1 / tu-inter-depth=1 / me=1 / subme=2 / merange=57 / no-rect / no-amp / max-merge=2 / temporal-mvp / no-early-skip / recursion-skip / rdpenalty=0 / no-tskip / no-tskip-fast / strong-intra-smoothing / no-lossless / no-cu-lossless / no-constrained-intra / no-fast-intra / open-gop / no-temporal-layers / interlace=0 / keyint=250 / min-keyint=23 / scenecut=40 / rc-lookahead=20 / lookahead-slices=5 / bframes=4 / bframe-bias=0 / b-adapt=2 / ref=3 / limit-refs=3 / no-limit-modes / weightp / no-weightb / aq-mode=1 / qg-size=32 / aq-strength=1.00 / cbqpoffs=0 / crqpoffs=0 / rd=3 / psy-rd=2.00 / rdoq-level=0 / psy-rdoq=0.00 / no-rd-refine / signhide / deblock=0:0 / sao / no-sao-non-deblock / b-pyramid / cutree / no-intra-refresh / rc=2 / pass / bitrate=2488 / qcomp=0.60 / qpmin=0 / qpmax=51 / qpstep=4 / cplxblur=20.0 / qblur=0.5 / ipratio=1.40 / pbratio=1.30
Default : Yes
Forced : No

Audio
ID : 2
Format : AAC
Format/Info : Advanced Audio Codec
Format profile : LC
Codec ID : A_AAC
Duration : 2h 21mn
Bit rate : 331 Kbps
Channel(s) : 6 channels
Channel positions : Front: L C R, Side: L R, LFE
Sampling rate : 48.0 KHz
Frame rate : 46.875 fps (1024 spf)
Compression mode : Lossy
Delay relative to video : 20ms
Stream size : 334 MiB (12%)
Language : English
Default : No
Forced : No

Text #1
ID : 3
Format : VobSub
Muxing mode : zlib
Codec ID : S_VOBSUB
Codec ID/Info : Picture based subtitle format used on DVDs
Duration : 2h 12mn
Bit rate : 7 007 bps
Count of elements : 2157
Stream size : 6.66 MiB (0%)
Language : English
Default : No
Forced : No

Text #2
ID : 4
Format : VobSub
Muxing mode : zlib
Codec ID : S_VOBSUB
Codec ID/Info : Picture based subtitle format used on DVDs
Duration : 2h 12mn
Bit rate : 5 258 bps
Count of elements : 1790
Stream size : 4.99 MiB (0%)
Language : German
Default : No
Forced : No

Text #3
ID : 5
Format : VobSub
Muxing mode : zlib
Codec ID : S_VOBSUB
Codec ID/Info : Picture based subtitle format used on DVDs
Duration : 2h 20mn
Bit rate : 5 763 bps
Count of elements : 1878
Stream size : 5.79 MiB (0%)
Language : Turkish
Default : No
Forced : No

Text #4
ID : 6
Format : VobSub
Muxing mode : zlib
Codec ID : S_VOBSUB
Codec ID/Info : Picture based subtitle format used on DVDs
Duration : 2h 20mn
Bit rate : 6 270 bps
Count of elements : 1877
Stream size : 6.30 MiB (0%)
Language : Greek
Default : No
Forced : No

Text #5
ID : 7
Format : VobSub
Muxing mode : zlib
Codec ID : S_VOBSUB
Codec ID/Info : Picture based subtitle format used on DVDs
Duration : 2h 15mn
Bit rate : 11.5 Kbps
Count of elements : 2204
Stream size : 11.1 MiB (0%)
Language : English
Default : No
Forced : No

Text #6
ID : 8
Format : VobSub
Muxing mode : zlib
Codec ID : S_VOBSUB
Codec ID/Info : Picture based subtitle format used on DVDs
Duration : 2h 15mn
Bit rate : 10.9 Kbps
Count of elements : 2149
Stream size : 10.5 MiB (0%)
Language : German
Default : No
Forced : No

Menu
00:00:00.000 : en:Chapter 01
00:12:15.192 : en:Chapter 02
00:21:23.949 : en:Chapter 03
00:33:01.771 : en:Chapter 04
00:36:07.623 : en:Chapter 05
00:42:00.768 : en:Chapter 06
00:52:44.744 : en:Chapter 07
00:59:02.372 : en:Chapter 08
01:15:51.088 : en:Chapter 09
01:27:08.598 : en:Chapter 10
01:36:44.757 : en:Chapter 11
01:54:35.326 : en:Chapter 12
02:06:27.580 : en:Chapter 13
02:11:08.026 : en:Chapter 14


Source Information

Code:


Files:

Avengers - Age of Ultron 2015 (1080p Bluray x265 HEVC 10bit AAC 5.1 Tigole)
  • Avengers - Age of Ultron 2015 (1080p x265 10bit Tigole).mkv (2.8 GB)
  • Featurettes
    • Deleted and Extended Scenes.mkv (85.3 MB)
    • From The Inside Out - Making of 'Avengers - Age of Ultron'.mkv (242.2 MB)
    • Gag Reel.mkv (30.9 MB)
    • Global Adventure.mkv (35.3 MB)
    • The Infinite Six.mkv (86.2 MB)

Comments

Code:

  • udp://torrent.gresille.org:80/announce
  • udp://tracker.opentrackr.org:1337/announce
  • udp://tracker.coppersurfer.tk:6969/announce