Spectral (2016) 1080p x264 Phun Psyz

  • Category Movies
  • Type HD
  • Language English
  • Total size 1.6 GB
  • Uploaded By PhunPsyz
  • Downloads 393
  • Last checked 1 week ago
  • Date uploaded 1 week ago
  • Seeders 11
  • Leechers 4

Spectral

ThrillerActionScience Fiction

A special-ops team is dispatched to fight supernatural beings that have taken over a European city.

Infohash : D7B8C2D734A69154D0B8294D3F5DB554494A930D

x265 Size, x264 Compatibility, HD Quality

www.imdb.com/title/tt2106651/

A sci-fi/thriller story centered on a special-ops team that is dispatched to fight supernatural beings.

Source: NTG (NF) (3.61 GB)





Format : MPEG-4
Format profile : Base Media / Version 2
Codec ID : mp42 (isom/iso2/avc1/mp41)
File size : 1.57 GiB
Duration : 1 h 48 min
Overall bit rate mode : Variable
Overall bit rate : 2 073 kb/s
Writing application : HandBrake 1.0.7 2017040900

Video
ID : 1
Format : AVC
Format/Info : Advanced Video Codec
Format profile : [email protected]
Format settings, CABAC : Yes
Format settings, ReFrames : 8 frames
Codec ID : avc1
Codec ID/Info : Advanced Video Coding
Duration : 1 h 48 min
Bit rate : 1 908 kb/s
Width : 1 920 pixels
Height : 1 080 pixels
Display aspect ratio : 16:9
Frame rate mode : Constant
Frame rate : 24.000 FPS
Color space : YUV
Chroma subsampling : 4:2:0
Bit depth : 8 bits
Scan type : Progressive
Bits/(Pixel*Frame) : 0.038
Stream size : 1.44 GiB (92%)
Writing library : x264 core 148 r2708 86b7198
Color range : Limited
Color primaries : BT.709
Transfer characteristics : BT.709
Matrix coefficients : BT.709

Audio
ID : 2
Format : AAC
Format/Info : Advanced Audio Codec
Format profile : LC
Codec ID : 40
Duration : 1 h 48 min
Bit rate mode : Variable
Bit rate : 159 kb/s
Channel(s) : 2 channels
Channel positions : Front: L R
Sampling rate : 48.0 kHz
Frame rate : 46.875 FPS (1024 spf)
Compression mode : Lossy
Stream size : 123 MiB (8%)
Title : Stereo / Stereo
Default : Yes
Alternate group : 1

Files:

Spectral (2016) 1080p x264 Phun Psyz
  • katcr.co.txt (0.0 KB)
  • Torrent_downloaded_from_Demonoid_-_www.demonoid.pw_.txt (0.1 KB)
  • Spectral (2016) 1080p x264 Phun Psyz.mp4 (1.6 GB)

There are currently no comments. Feel free to leave one :)

Code:

  • udp://tracker.coppersurfer.tk:6969/announce
  • udp://tracker.leechers-paradise.org:6969/announce
  • udp://tracker.opentrackr.org:1337/announce
  • udp://p4p.arenabg.com:1337/announce
  • udp://eddie4.nl:6969/announce
  • udp://shadowshq.yi.org:6969/announce
  • udp://tracker.leechers-paradise.org:6969/announce
  • udp://tracker.zer0day.to:1337/announce
  • udp://tracker.pirateparty.gr:6969/announce
  • http://www.torrent-downloads.to:2710/announce
  • udp://inferno.demonoid.pw:3397/announce
  • http://mgtracker.org:6969/announce
  • udp://public.popcorn-tracker.org:6969/announce