Spider-Man - Homecoming (2017) (1080p Bluray x265 HEVC 10bit AAC ...

  • Category Movies
  • Type HEVC/x265
  • Language English
  • Total size 5.1 GB
  • Uploaded By RZeroX
  • Downloads 579
  • Last checked 5 days ago
  • Date uploaded 1 week ago
  • Seeders 3
  • Leechers 2

Spider-Man: Homecoming

ActionAdventureScience Fiction

Following the events of Captain America: Civil War, Peter Parker, with the help of his mentor Tony Stark, tries to balance his life as an ordinary high school student in Queens, New York City, with fighting crime as his superhero alter ego Spider-Man as a new threat, the Vulture, emerges.

Infohash : 18A6CF72B69BE12CAE7A23E95B1AC4DEE4D2C62C



Media Information

Code:

Format                         : Matroska
Format version                 : Version 4 / Version 2
File size                      : 5.12 GiB
Duration                       : 2 h 13 min
Overall bit rate               : 5 495 kb/s
Movie name                     : Spider-Man: Homecoming
Encoded date                   : UTC 2017-10-06 11:58:37
Writing application            : mkvmerge v16.0.0 ('Protest') 64-bit
Writing library                : libebml v1.3.5 + libmatroska v1.4.8

Video
ID                             : 1
Format                         : HEVC
Format/Info                    : High Efficiency Video Coding
Format profile                 : Main [email protected]@Main
Codec ID                       : V_MPEGH/ISO/HEVC
Duration                       : 2 h 13 min
Bit rate                       : 4 722 kb/s
Width                          : 1 920 pixels
Height                         : 800 pixels
Display aspect ratio           : 2.40:1
Frame rate mode                : Constant
Frame rate                     : 23.976 (24000/1001) FPS
Color space                    : YUV
Chroma subsampling             : 4:2:0
Bit depth                      : 10 bits
Bits/(Pixel*Frame)             : 0.128
Stream size                    : 4.40 GiB (86%)
Writing library                : x265 2.5+20-0967d0add97e:[Windows][GCC 7.2.0][64 bit] 10bit
Encoding settings              : cpuid=1173503 / frame-threads=3 / numa-pools=12 / wpp / no-pmode / no-pme / no-psnr / no-ssim / log-level=2 / input-csp=1 / input-res=1920x800 / interlace=0 / total-frames=192000 / level-idc=0 / high-tier=1 / uhd-bd=0 / ref=4 / no-allow-non-conformance / no-repeat-headers / annexb / no-aud / no-hrd / info / hash=0 / no-temporal-layers / open-gop / min-keyint=23 / keyint=250 / bframes=8 / b-adapt=2 / b-pyramid / bframe-bias=0 / rc-lookahead=70 / lookahead-slices=4 / scenecut=40 / no-intra-refresh / ctu=64 / min-cu-size=8 / no-rect / no-amp / max-tu-size=32 / tu-inter-depth=1 / tu-intra-depth=1 / limit-tu=0 / rdoq-level=2 / dynamic-rd=0.00 / no-ssim-rd / signhide / no-tskip / nr-intra=0 / nr-inter=0 / no-constrained-intra / strong-intra-smoothing / max-merge=3 / limit-refs=3 / limit-modes / me=3 / subme=5 / merange=57 / temporal-mvp / weightp / weightb / no-analyze-src-pics / deblock=-1:-1 / sao / no-sao-non-deblock / rd=4 / no-early-skip / rskip / no-fast-intra / no-tskip-fast / no-cu-lossless / no-b-intra / no-splitrd-skip / rdpenalty=0 / psy-rd=1.60 / psy-rdoq=1.00 / no-rd-refine / analysis-reuse-mode=0 / no-lossless / cbqpoffs=0 / crqpoffs=0 / rc=crf / crf=18.0 / qcomp=0.60 / qpstep=4 / stats-write=0 / stats-read=0 / ipratio=1.40 / pbratio=1.30 / aq-mode=3 / aq-strength=1.00 / cutree / zone-count=0 / no-strict-cbr / qg-size=32 / no-rc-grain / qpmax=69 / qpmin=0 / no-const-vbv / sar=0 / overscan=0 / videoformat=5 / range=0 / colorprim=2 / transfer=2 / colormatrix=2 / chromaloc=0 / display-window=0 / max-cll=0,0 / min-luma=0 / max-luma=1023 / log2-max-poc-lsb=8 / vui-timing-info / vui-hrd-info / slices=1 / opt-qp-pps / opt-ref-list-length-pps / no-multi-pass-opt-rps / scenecut-bias=0.00 / no-opt-cu-delta-qp / aq-motion / no-hdr / no-hdr-opt / no-dhdr10-opt / analysis-reuse-level=5 / scale-factor=0 / refine-intra=0 / refine-inter=0 / refine-mv=0 / no-limit-sao / ctu-info=0
Default                        : Yes
Forced                         : No

Audio
ID                             : 2
Format                         : AAC
Format/Info                    : Advanced Audio Codec
Format profile                 : LC
Codec ID                       : A_AAC-2
Duration                       : 2 h 13 min
Bit rate                       : 716 kb/s
Channel(s)                     : 6 channels
Channel positions              : Front: L C R, Side: L R, LFE
Sampling rate                  : 48.0 kHz
Frame rate                     : 46.875 FPS (1024 SPF)
Compression mode               : Lossy
Delay relative to video        : 20 ms
Stream size                    : 684 MiB (13%)
Language                       : English
Default                        : No
Forced                         : No

Text #1
ID                             : 3
Format                         : PGS
Muxing mode                    : zlib
Codec ID                       : S_HDMV/PGS
Codec ID/Info                  : Picture based subtitle format used on BDs/HD-DVDs
Duration                       : 2 h 12 min
Bit rate                       : 38.6 kb/s
Count of elements              : 3555
Stream size                    : 36.5 MiB (1%)
Language                       : English
Default                        : No
Forced                         : No

Text #2
ID                             : 4
Format                         : PGS
Muxing mode                    : zlib
Codec ID                       : S_HDMV/PGS
Codec ID/Info                  : Picture based subtitle format used on BDs/HD-DVDs
Duration                       : 2 h 12 min
Bit rate                       : 29.1 kb/s
Count of elements              : 3215
Stream size                    : 27.7 MiB (1%)
Language                       : French
Default                        : No
Forced                         : No

Text #3
ID                             : 5
Format                         : PGS
Muxing mode                    : zlib
Codec ID                       : S_HDMV/PGS
Codec ID/Info                  : Picture based subtitle format used on BDs/HD-DVDs
Duration                       : 2 h 12 min
Bit rate                       : 34.1 kb/s
Count of elements              : 3355
Stream size                    : 32.4 MiB (1%)
Language                       : Spanish
Default                        : No
Forced                         : No

Menu
00:00:00.000                   : en:Chapter 1
00:00:48.799                   : en:Chapter 2
00:01:28.046                   : en:Chapter 3
00:02:03.165                   : en:Chapter 4
00:02:26.646                   : en:Chapter 5
00:05:35.001                   : en:Chapter 6
00:06:03.446                   : en:Chapter 7
00:06:29.306                   : en:Chapter 8
00:08:58.121                   : en:Chapter 9
00:10:57.699                   : en:Chapter 10
00:12:25.870                   : en:Chapter 11
00:13:49.120                   : en:Chapter 12
00:17:48.109                   : en:Chapter 13
00:20:50.749                   : en:Chapter 14
00:21:22.072                   : en:Chapter 15
00:22:00.986                   : en:Chapter 16
00:24:23.587                   : en:Chapter 17
00:25:52.134                   : en:Chapter 18
00:26:44.520                   : en:Chapter 19
00:28:12.941                   : en:Chapter 20
00:29:11.708                   : en:Chapter 21
00:32:25.277                   : en:Chapter 22
00:33:03.231                   : en:Chapter 23
00:34:14.344                   : en:Chapter 24
00:34:35.198                   : en:Chapter 25
00:37:10.895                   : en:Chapter 26
00:38:13.833                   : en:Chapter 27
00:40:53.242                   : en:Chapter 28
00:41:52.218                   : en:Chapter 29
00:45:03.034                   : en:Chapter 30
00:46:25.324                   : en:Chapter 31
00:48:24.485                   : en:Chapter 32
00:51:06.313                   : en:Chapter 33
00:52:41.367                   : en:Chapter 34
00:55:30.285                   : en:Chapter 35
00:58:41.560                   : en:Chapter 36
00:59:33.612                   : en:Chapter 37
01:00:02.390                   : en:Chapter 38
01:00:15.445                   : en:Chapter 39
01:00:29.793                   : en:Chapter 40
01:00:56.236                   : en:Chapter 41
01:01:19.342                   : en:Chapter 42
01:03:25.552                   : en:Chapter 43
01:05:08.279                   : en:Chapter 44
01:06:21.978                   : en:Chapter 45
01:06:47.086                   : en:Chapter 46
01:07:23.289                   : en:Chapter 47
01:10:11.040                   : en:Chapter 48
01:11:20.776                   : en:Chapter 49
01:12:53.286                   : en:Chapter 50
01:14:51.987                   : en:Chapter 51
01:15:45.833                   : en:Chapter 52
01:16:56.320                   : en:Chapter 53
01:18:42.092                   : en:Chapter 54
01:19:12.247                   : en:Chapter 55
01:20:22.234                   : en:Chapter 56
01:21:00.731                   : en:Chapter 57
01:23:33.759                   : en:Chapter 58
01:27:21.319                   : en:Chapter 59
01:28:49.950                   : en:Chapter 60
01:32:38.219                   : en:Chapter 61
01:33:23.723                   : en:Chapter 62
01:34:00.093                   : en:Chapter 63
01:35:21.007                   : en:Chapter 64
01:36:48.886                   : en:Chapter 65
01:38:46.295                   : en:Chapter 66
01:40:48.000                   : en:Chapter 67
01:42:08.122                   : en:Chapter 68
01:43:39.839                   : en:Chapter 69
01:45:07.051                   : en:Chapter 70
01:46:23.836                   : en:Chapter 71
01:47:19.183                   : en:Chapter 72
01:48:07.523                   : en:Chapter 73
01:49:07.207                   : en:Chapter 74
01:50:14.733                   : en:Chapter 75
01:52:24.655                   : en:Chapter 76
01:54:01.251                   : en:Chapter 77
01:56:02.038                   : en:Chapter 78
01:58:04.077                   : en:Chapter 79
01:59:28.870                   : en:Chapter 80
02:00:14.624                   : en:Chapter 81
02:01:11.973                   : en:Chapter 82
02:02:21.918                   : en:Chapter 83












Source Information

Code:

Release : Spider-Man: Homecoming 2017 1080p BluRay REMUX AVC DTS-HD MA 5.1-EPSiLON
Complete name : Spider-Man.Homecoming.2017.1080p.BluRay.REMUX.AVC.DTS-HD.MA.5.1-EPSiLON.mkv
File size : 25.6 GiB
Duration : 2 h 13 min
Overall bit rate mode : Variable
Overall bit rate : 27.4 Mb/s  



Files:

Spider-Man - Homecoming (2017) (1080p Bluray x265 HEVC 10bit AAC 5.1 RZeroX)
  • Spider-Man - Homecoming (2017) (1080p Bluray x265 HEVC 10bit AAC 5.1 RZeroX).mkv (5.1 GB)

There are currently no comments. Feel free to leave one :)

Code:

  • udp://tracker.leechers-paradise.org:6969/announce
  • udp://tracker.zer0day.to:1337/announce